Konwertowanie plików na Linuksie

Kwi 15
2010

Konwertowanie plików multimedialnych na systemach operacyjnych spod znaku pingwinka często przysparza wiele kłopotów. Jeśli mamy zamiar zmienić format plikowi pobranemu z serwisu Wrzuta.pl, bądź YouTube.pl wystarczy nam do tego celu jeden graficzny program o nazwie soundconverter.

sudo apt-get install soundconverter

Program umożliwia konwersje plików z formatów *.flv, *.mp4 itp. na formaty *.ogg, *.mp3, *.flac, *.wav, *.m4a zaledwie jednym kliknięciem. Jego interfejs jest bardzo intuicyjny. Wystarczy przeciągnąć interesujący nas plik do okna programu, wybrać z opcji format, jaki nas interesuje, a następnie poczekać chwilkę, aż program zrobi swoje.

sounconverter

Soundconverter nie jest zły, lecz jeśli zechcemy przekonwertować film.mp4 do formatu flasha to nie uczynimy tego graficznie. Ale i na to jest rada, wszakże mamy do czynienia z Linuksem i konsolą.

sudo apt-get install ffmpeg

Ffmpeg to potężna aplikacja służąca do konwersji plików multimedialnych. Posiada mnóstwo parametrów, jednak nam wystarczy jeden -i

ffmpeg -i plik_wejsciowy.mp4 plik_wyjsciowy.flv

Polecenie to przekonwertuje plik pobrany z serwisu YouTube *.mp4 do flasha *.flv. A oto skrócony wynik działania programu.

Seems stream 1 codec frame rate differs from container frame rate: 59.93 (29966/500) -> 29.97 (30000/1001)
Input #0, mov,mp4,m4a,3gp,3g2,mj2, from ‚Elfen Lied.mp4’:
Duration: 00:04:32.87, start: 0.000000, bitrate: 575 kb/s
Stream #0.0(und): Audio: aac, 44100 Hz, stereo, s16
Stream #0.1(und): Video: h264, yuv420p, 480×360, 29.97 tbr, 29.97 tbn, 59.93 tbc
Output #0, flv, to ‚Elfen Lied.flv’:
Stream #0.0(und): Video: flv, yuv420p, 480×360, q=2-31, 200 kb/s, 90k tbn, 29.97 tbc
Stream #0.1(und): Audio: adpcm_swf, 44100 Hz, stereo, s16, 64 kb/s
Stream mapping:
Stream #0.1 -> #0.0
Stream #0.0 -> #0.1
Press [q] to stop encoding
frame= 8177 fps=463 q=31.0 Lsize= 19659kB time=272.83 bitrate= 590.3kbits/s
video:7661kB audio:11779kB global headers:0kB muxing overhead 1.130955%
komeniusz@cyber-jadro:~/Pulpit$

Można także użyć

mencoder -oac mp3lame -ovc lavc -lavcopts vcodec=mpeg4 -o output.avi input.flv

Dodaj komentarz

Twój adres email nie zostanie opublikowany. Pola, których wypełnienie jest wymagane, są oznaczone symbolem *